The Family (2013) CAM XViD-JTiCE

September 24th, 2013 by admin Leave a reply »
title

The Family 2013 CAM XViD – JUSTiCE (1.5GB)

Video Source: BLACKTOP (Thanks)
Audio Source: BLACKTOP (Thanks)
Size: 1.34GB
iMDB Link: http://www.imdb.com/title/tt2404311/
iMDB Rating: 6,0
Genre: Action Comedy Crime
Runtime: 1h 45mn

Video
ID                                       : 0
Format                                   : MPEG-4 Visual
Format profile                           : Advanced Simple@L5
Format settings, BVOP                    : 2
Format settings, QPel                    : No
Format settings, GMC                     : No warppoints
Format settings, Matrix                  : Default (MPEG)
Muxing mode                              : Packed bitstream
Codec ID                                 : XVID
Codec ID/Hint                            : XviD
Duration                                 : 1h 45mn
Bit rate                                 : 1 824 Kbps
Width                                    : 720 pixels
Height                                   : 288 pixels
Display aspect ratio                     : 2.500
Frame rate                               : 29.970 fps
Color space                              : YUV
Chroma subsampling                       : 4:2:0
Bit depth                                : 8 bits
Scan type                                : Progressive
Compression mode                         : Lossy
Bits/(Pixel*Frame)                       : 0.293
Stream size                              : 1.34 GiB (93%)
Writing library                          : XviD 64

Audio
ID                                       : 1
Format                                   : MPEG Audio
Format version                           : Version 1
Format profile                           : Layer 3
Mode                                     : Joint stereo
Mode extension                           : MS Stereo
Codec ID                                 : 55
Codec ID/Hint                            : MP3
Duration                                 : 1h 45mn
Bit rate mode                            : Constant
Bit rate                                 : 128 Kbps
Channel(s)                               : 2 channels
Sampling rate                            : 48.0 KHz
Compression mode                         : Lossy
Delay relative to video                  : 16ms
Stream size                              : 96.3 MiB (7%)
Alignment                                : Split accross interleaves
Interleave, duration                     : 33 ms (1.00 video frame)
Interleave, preload duration             : 500 ms

Video was decent for a cam ….slight slanted,cropped a bit on the right side.Had blacktops watermark bottom right corner,had black

borders…Audio was decent but seemed oos,and had the normal cam issues …and the right channel overpowered the left one.

WKDONE -
First sripped the audio and dropped into AA …then i fixed the left channel and then remaster both channels,changing the EQ bands and then resaved.
Video i dropped in vdub via a script and then i used the quad filter to pull the sides more level and then pulled up the bottom right corner a touch.
The used null to crop the borders.
Decided to blur the logo in the corner,then moved onto changing the sat,rgb colours,intes,brightness,contrast,sharpness and resized to a better AR.
Once all done i resyncd the audio to the encode i did.

Overall ..v7.5 a 6.5 m7 ….pretty decent for a cam thats for sure.

SINGLE LINK

1GB LINKS

http://ul.to/8aj5aklp

http://ul.to/vcbe1bsi

http://billionuploads.com/m7n6uxxgxh42

http://billionuploads.com/mydsxrht1gia

http://www.putlocker.com/file/82ED49B1FD0930D5

http://www.putlocker.com/file/9541704AD00688FB

http://180upload.com/anvlg3klkeez

http://180upload.com/fetm50skvrl8

http://hugefiles.net/mcvexg92sgr1

http://hugefiles.net/ouqe01m9axpp

-
Like my post? see how easy it is to write thank you!

See? is easy!
rapidgator.net:

http://rapidgator.net/file/d891050756765b9a81aff2052100de53/9000.The_Family_2013_CAM_XViD_-_JUSTiCE.avi.html

http://rapidgator.net/file/6c6d39a3d2e269439817e37e9acc406b/9000.The_Family_2013_CAM_XViD_-_JUSTiCE.part2.rar.html

http://rapidgator.net/file/f60836efe85243a0eeae526d40582593/9000.The_Family_2013_CAM_XViD_-_JUSTiCE.part1.rar.html

Software:

Advertisement

Leave a Reply

You must be logged in to post a comment.