Apocalypse Now (1979) Redux LIMITED DVDRip DivX-HOiLE

June 23rd, 2013 by admin Leave a reply »
title

Apocalypse Now (1979) Redux LIMITED DVDRip DivX-HOSTiLE

http://www.imdb.com/title/tt0078788/

General
Complete name : Apocalypse.Now.Redux.LIMITED.DVDRip.DivX-HOSTiLECD1Apocalypse.Now.Redux.LIMITED.CD1.DVDRip.DivX.HOSTiLE.avi
Format : AVI
Format/Info : Audio Video Interleave
File size : 700 MiB
Duration : 1h 33mn
Overall bit rate mode : Variable
Overall bit rate : 1 051 Kbps
Movie name : Apocalypse Now Redux CD1
Director : HOSTiLE
Subject : Apocalypse Now Redux CD1
Writing application : Nandub v1.0rc2
Writing library : Nandub build 1853/release
Video
ID : 0
Format : MPEG-4 Visual
Codec ID : DIV3
Codec ID/Hint : DivX 3 Low
Duration : 1h 33mn
Bit rate : 876 Kbps
Width : 576 pixels
Height : 288 pixels
Display aspect ratio : 2.000
Frame rate : 23.976 fps
Color space : YUV
Chroma subsampling : 4:2:0
Bit depth : 8 bits
Compression mode : Lossy
Bits/(Pixel*Frame) : 0.220
Stream size : 583 MiB (83%)
Audio
ID : 1
Format : MPEG Audio
Format version : Version 1
Format profile : Layer 3
Mode : Joint stereo
Mode extension : MS Stereo
Codec ID : 55
Codec ID/Hint : MP3
Duration : 1h 33mn
Bit rate mode : Variable
Bit rate : 162 Kbps
Minimum bit rate : 96.0 Kbps
Channel(s) : 2 channels
Sampling rate : 48.0 KHz
Compression mode : Lossy
Stream size : 108 MiB (15%)
Alignment : Aligned on interleaves
Interleave, duration : 24 ms (0.58 video frame)
Interleave, preload duration : 109 ms
Writing library : LAME3.90a

General
Complete name : Apocalypse.Now.Redux.LIMITED.DVDRip.DivX-HOSTiLECD2Apocalypse.Now.Redux.LIMITED.CD2.DVDRip.DivX.HOSTiLE.avi
Format : AVI
Format/Info : Audio Video Interleave
File size : 699 MiB
Duration : 1h 49mn
Overall bit rate mode : Variable
Overall bit rate : 892 Kbps
Movie name : Apocalypse Now Redux CD2
Director : HOSTiLE
Subject : Apocalypse Now Redux CD2
Writing application : Nandub v1.0rc2
Writing library : Nandub build 1853/release
Video
ID : 0
Format : MPEG-4 Visual
Codec ID : DIV3
Codec ID/Hint : DivX 3 Low
Duration : 1h 49mn
Bit rate : 718 Kbps
Width : 576 pixels
Height : 288 pixels
Display aspect ratio : 2.000
Frame rate : 23.976 fps
Color space : YUV
Chroma subsampling : 4:2:0
Bit depth : 8 bits
Compression mode : Lossy
Bits/(Pixel*Frame) : 0.181
Stream size : 562 MiB (80%)
Audio
ID : 1
Format : MPEG Audio
Format version : Version 1
Format profile : Layer 3
Mode : Joint stereo
Mode extension : MS Stereo
Codec ID : 55
Codec ID/Hint : MP3
Duration : 1h 49mn
Bit rate mode : Variable
Bit rate : 160 Kbps
Channel(s) : 2 channels
Sampling rate : 48.0 KHz
Compression mode : Lossy
Stream size : 126 MiB (18%)
Alignment : Aligned on interleaves
Interleave, duration : 24 ms (0.58 video frame)
Interleave, preload duration : 498 ms
rapidgator.net:

http://rapidgator.net/file/00f4dcbc87a724ad15af758119cd422d/Apocalypse.Now.Redux.LIMITED.DVDRip.DivX.HOSTiLE.part1.rar.html

http://rapidgator.net/file/a36caa4a94120b456c3672124568a48f/Apocalypse.Now.Redux.LIMITED.DVDRip.DivX.HOSTiLE.part2.rar.html

Software:

Advertisement

Leave a Reply

You must be logged in to post a comment.